TV / Horror
Żywe Trupy - The Walking Dead (2017) [S08E16] [720p.HDTV.x264-AVS] [ENG]


Dodał: PRoDiGy
Data dodania:
2018-04-16 15:45:00
Rozmiar: 2.02 GB
Ostat. aktualizacja:
2018-04-16 15:45:07
Seedów: 2448
Peerów: 750


Komentarze: 0

...( Info )...

produkcja .... USA
gatunek .... Horror, Dramat, Thriller
twórca .... Frank Darabont

...( O filmie )...

YouTube - Trailer
https://www.youtube.com/watch?v=6v6Td33hA-cg

...( Opis )...

„The Walking Dead” to serial Franka Darabonta, reżysera filmów „Skazani na Shawshank” i „Zielona mila”, oraz Gale Anne Hurd, producentki „Terminatora”, „Obcego”, „Armagedonu” i „Niesamowitego Hulka”, oparty na bestsellerowym komiksie Roberta Kirkmana.

Serial opowiada o czasie następującym po pandemicznej apokalipsie, po której świat opanowały zombie. Szeryf Rick Grimes (Andrew Lincoln) podróżuje wraz z rodziną i z garstką ocalałych, w bezustannym poszukiwaniu bezpiecznego schronienia. Ciągła presja oraz codzienne zmagania się z zagrożeniem i śmiercią zbierają krwawe żniwo, popychając wielu ku otchłani najgłębszego ludzkiego okrucieństwa. W trakcie walki o przeżycie swojej rodziny, Rick odkrywa, że wszechogarniający strach ocalałych może być dużo bardziej niebezpieczny, niż przemierzające świat zombie.

...( Obsada )...

Norman Reedus - Daryl Dixon
Melissa McBride - Carol Peletier
Lennie James - Morgan Jones
Christian Serratos - Rosita Espinosa
Jeffrey Dean Morgan - Negan
Andrew Lincoln - Rick Grimes
Chandler Riggs - Carl Grimes
Danai Gurira - Michonne
Lauren Cohan - Maggie Greene

...( Dane Techniczne )...

Przykładowe DANE TECHNICZNE jednego odcinka;

Video
ID : 1
Format : AVC
Format/Info : Advanced Video Codec
Format profile : High@L4.1
Format settings : CABAC / 5 Ref Frames
Format settings, CABAC : Yes
Format settings, RefFrames : 5 frames
Codec ID : V_MPEG4/ISO/AVC
Duration : 44 min 24 s
Bit rate : 6 017 kb/s
Width : 1 280 pixels
Height : 720 pixels
Display aspect ratio : 16:9
Frame rate mode : Constant
Frame rate : 23.976 (24000/1001) FPS
Color space : YUV
Chroma subsampling : 4:2:0
Bit depth : 8 bits
Scan type : Progressive
Bits/(Pixel*Frame) : 0.272
Stream size : 1.87 GiB (92%)
Writing library : x264 core 155 r2901 7d0ff22
Default : Yes
Forced : No
Color range : Limited
Matrix coefficients : BT.709

Audio
ID : 2
Format : AC-3
Format/Info : Audio Coding 3
Format settings, Endianness : Big
Codec ID : A_AC3
Duration : 44 min 24 s
Bit rate mode : Constant
Bit rate : 384 kb/s
Channel(s) : 6 channels
Channel positions : Front: L C R, Side: L R, LFE
Sampling rate : 48.0 kHz
Frame rate : 31.250 FPS (1536 SPF)
Bit depth : 16 bits
Compression mode : Lossy
Stream size : 122 MiB (6%)
Service kind : Complete Main
Default : Yes
Forced : No

Lista plików Show/Hide [Pokaż/Ukryj]
Trackery
  • udp://9.rarbg.to:2710/announce
  • udp://9.rarbg.me:2710/announce
  • http://tracker.trackerfix.com:80/announce

Brak komentarzy!

Żaden z plików nie znajduje się na serwerze. Torrenty są własnością użytkowników. Administrator serwisu nie może ponieść konsekwencji za to co użytkownicy wstawiają, lub za to co czynią na stronie. Nie możesz używać tego serwisu do rozpowszechniania lub ściągania materiałów do których nie masz odpowiednich praw lub licencji. Użytkownicy odpowiedzialni są za przestrzeganie tych zasad.
Copyright © 2018 Ex-torrentyorg-com.pl

Najlepsze strony Torrentowe